<?xml version="1.0" standalone="no"?>
<!DOCTYPE svg PUBLIC "-//W3C//DTD SVG 1.1//EN" "http://www.w3.org/Graphics/SVG/1.1/DTD/svg11.dtd">
<svg xmlns="http://www.w3.org/2000/svg">
<metadata>Generated by Fontastic.me</metadata>
<defs>
<font id="fop2" horiz-adv-x="512">
<font-face font-family="fop2" units-per-em="512" ascent="480" descent="-32"/>
<missing-glyph horiz-adv-x="512" />

<glyph glyph-name="call-end" unicode="&#97;" d="M73 162l-50 48c-4 4-6 9-6 15 0 6 2 11 6 15 32 34 68 59 109 76 41 17 82 25 124 25 42 0 83-8 124-25 41-17 77-42 109-76 4-4 6-9 6-15 0-6-2-11-6-15l-50-48c-3-4-8-6-13-6-5-1-10 1-14 4l-62 47c-3 2-5 5-7 7-1 3-2 6-2 10l0 61c-13 4-27 7-41 10-14 2-29 4-44 4-15 0-30-2-44-4-14-3-28-6-41-10l0-61c0-4-1-7-2-10-2-2-4-5-7-7l-62-47c-4-3-9-5-14-4-5 0-10 2-13 6z m55 106c-10-6-20-12-30-19-9-7-19-14-30-23l22-21 38 30z m256-1l0-32 38-30 22 20c-11 9-21 17-30 24-10 7-20 13-30 18z m-256 1z m256-1z"/>
<glyph glyph-name="voicemail" unicode="&#98;" d="M139 171c-27 0-50 9-68 28-19 18-28 41-28 68 0 26 9 49 28 68 18 18 41 28 68 28 26 0 49-10 68-28 18-19 28-42 28-68 0-10-2-19-5-28-2-9-6-17-11-26l74 0c-5 9-9 17-11 26-3 9-5 18-5 28 0 26 10 49 28 68 19 18 42 28 68 28 27 0 50-10 68-28 19-19 28-42 28-68 0-27-9-50-28-68-18-19-41-28-68-28z m0 42c15 0 27 5 38 16 10 10 15 23 15 38 0 15-5 27-15 38-11 10-23 15-38 15-15 0-28-5-38-15-11-11-16-23-16-38 0-15 5-28 16-38 10-11 23-16 38-16z m234 0c15 0 28 5 38 16 11 10 16 23 16 38 0 15-5 27-16 38-10 10-23 15-38 15-15 0-27-5-38-15-10-11-15-23-15-38 0-15 5-28 15-38 11-11 23-16 38-16z"/>
<glyph glyph-name="call-missed" unicode="&#101;" d="M256 140l-149 150 0-98-43 0 0 171 171 0 0-43-98 0 119-119 162 162 30-31z"/>
<glyph glyph-name="call-missed-outgoing" unicode="&#102;" d="M256 140l-192 192 30 31 162-162 119 119-98 0 0 43 171 0 0-171-43 0 0 98z"/>
<glyph glyph-name="call-received" unicode="&#103;" d="M107 107l0 213 42 0 0-141 248 248 30-30-248-248 141 0 0-42z"/>
<glyph glyph-name="campaign" unicode="&#104;" d="M384 235l0 42 85 0 0-42z m26-150l-69 52 26 34 68-52z m-43 256l-26 34 69 52 25-34z m-260-234l0 85-22 0c-11 0-21 4-30 13-8 8-12 18-12 30l0 42c0 12 4 22 12 30 9 9 19 13 30 13l86 0 106 64 0-256-106 64-22 0 0-85z m128 97l0 104-53-31-97 0 0-42 97 0z m64-19l0 142c9-8 17-18 23-31 6-12 9-25 9-40 0-15-3-28-9-40-6-13-14-23-23-31z m-139 71z"/>
<glyph glyph-name="contacts" unicode="&#105;" d="M85 21l0 43 342 0 0-43z m0 427l0 43 342 0 0-43z m171-213c18 0 33 6 45 18 13 13 19 28 19 46 0 17-6 33-19 45-12 12-27 19-45 19-18 0-33-7-45-19-13-12-19-28-19-45 0-18 6-33 19-46 12-12 27-18 45-18z m-171-150c-11 0-21 5-30 13-8 8-12 18-12 30l0 256c0 12 4 22 12 30 9 8 19 13 30 13l342 0c11 0 21-5 30-13 8-8 12-18 12-30l0-256c0-12-4-22-12-30-9-8-19-13-30-13z m38 43c16 20 35 36 58 47 23 11 48 17 75 17 27 0 52-6 75-17 23-11 42-27 58-47l38 0 0 256-342 0 0-256z m63 0l140 0c-10 7-21 12-33 16-12 4-24 5-37 5-13 0-25-1-37-5-12-4-23-9-33-16z m70 149c-6 0-11 2-15 6-4 5-6 10-6 16 0 6 2 11 6 15 4 4 9 6 15 6 6 0 11-2 15-6 4-4 6-9 6-15 0-6-2-11-6-16-4-4-9-6-15-6z m0-21z"/>
<glyph glyph-name="deskphone" unicode="&#106;" d="M363 107l42 0 0 298-42 0z m-214 106c6 0 11 2 16 6 4 5 6 10 6 16 0 6-2 11-6 15-5 4-10 6-16 6-6 0-11-2-15-6-4-4-6-9-6-15 0-6 2-11 6-16 4-4 9-6 15-6z m0-64c6 0 11 2 16 6 4 5 6 10 6 16 0 6-2 11-6 15-5 4-10 6-16 6-6 0-11-2-15-6-4-4-6-9-6-15 0-6 2-11 6-16 4-4 9-6 15-6z m-21 128l171 0 0 86-171 0z m85-64c6 0 11 2 16 6 4 5 6 10 6 16 0 6-2 11-6 15-5 4-10 6-16 6-6 0-11-2-15-6-4-4-6-9-6-15 0-6 2-11 6-16 4-4 9-6 15-6z m0-64c6 0 11 2 16 6 4 5 6 10 6 16 0 6-2 11-6 15-5 4-10 6-16 6-6 0-11-2-15-6-4-4-6-9-6-15 0-6 2-11 6-16 4-4 9-6 15-6z m64 64c6 0 11 2 16 6 4 5 6 10 6 16 0 6-2 11-6 15-5 4-10 6-16 6-6 0-11-2-15-6-4-4-6-9-6-15 0-6 2-11 6-16 4-4 9-6 15-6z m0-64c6 0 11 2 16 6 4 5 6 10 6 16 0 6-2 11-6 15-5 4-10 6-16 6-6 0-11-2-15-6-4-4-6-9-6-15 0-6 2-11 6-16 4-4 9-6 15-6z m43-21l0 256-213 0 0-256z m43-64c-9 0-16 2-22 6-6 4-11 9-15 15l-219 0c-12 0-22 5-30 13-9 8-13 18-13 30l0 256c0 12 4 22 13 30 8 8 18 13 30 13l219 0c4 6 9 11 15 15 6 4 13 6 22 6l42 0c12 0 22-4 30-13 9-8 13-18 13-30l0-298c0-12-4-22-13-30-8-9-18-13-30-13z m-256 64l0 256z"/>
<glyph glyph-name="groups" unicode="&#107;" d="M0 128l0 34c0 15 8 27 23 37 16 10 37 14 62 14 5 0 9 0 14 0 4 0 8-1 12-1-5-8-9-16-11-24-3-8-4-16-4-25l0-35z m128 0l0 35c0 11 3 21 9 31 7 9 15 18 27 25 11 7 25 12 41 16 15 3 33 5 51 5 19 0 36-2 52-5 16-4 29-9 41-16 11-7 20-16 26-25 6-10 9-20 9-31l0-35z m288 0l0 35c0 9-1 18-3 26-3 8-6 16-11 23 4 0 8 1 12 1 4 0 8 0 13 0 25 0 46-4 62-14 15-9 23-22 23-37l0-34z m-243 43l166 0c-3 7-13 13-29 18-17 6-34 8-54 8-20 0-37-2-54-8-16-5-25-11-29-18z m-88 64c-11 0-21 4-30 12-8 9-12 19-12 30 0 12 4 23 12 31 9 8 19 12 30 12 12 0 23-4 31-12 8-8 12-19 12-31 0-11-4-21-12-30-8-8-19-12-31-12z m342 0c-12 0-22 4-30 12-9 9-13 19-13 30 0 12 4 23 13 31 8 8 18 12 30 12 12 0 22-4 30-12 8-8 12-19 12-31 0-11-4-21-12-30-8-8-18-12-30-12z m-171 21c-18 0-33 6-45 19-13 12-19 27-19 45 0 18 6 33 19 46 12 12 27 18 45 18 18 0 33-6 46-18 12-13 18-28 18-46 0-18-6-33-18-45-13-13-28-19-46-19z m0 43c6 0 11 2 15 6 4 4 6 9 6 15 0 6-2 11-6 15-4 4-9 6-15 6-6 0-11-2-15-6-4-4-6-9-6-15 0-6 2-11 6-15 4-4 9-6 15-6z m1-128z m-1 149z"/>
<glyph glyph-name="hearing" unicode="&#108;" d="M363 43c-22 0-40 5-54 16-15 11-25 27-33 49-6 18-12 30-17 37-6 7-18 19-38 34-22 18-40 38-52 60-13 23-20 50-20 81 0 42 15 78 43 106 29 29 64 43 107 43 42 0 77-14 106-43 29-28 43-64 43-106l-43 0c0 30-10 56-30 76-21 20-46 31-76 31-31 0-56-11-76-31-21-20-31-46-31-76 0-24 5-45 14-62 10-17 24-32 41-46 19-13 33-26 44-39 10-13 18-27 23-42 5-15 11-27 17-34 7-8 18-12 32-12 11 0 21 5 30 13 8 8 12 18 12 30l43 0c0-23-8-44-25-60-17-17-37-25-60-25z m-231 112c-21 21-37 46-50 74-12 28-18 59-18 91 0 33 6 63 18 92 13 28 29 53 50 74l31-29c-18-18-31-39-41-62-10-23-15-48-15-75 0-26 5-51 15-74 10-23 23-44 41-61z m167 112c-15 0-28 5-38 15-11 11-16 23-16 38 0 15 5 28 16 38 10 10 23 15 38 15 15 0 27-5 38-15 10-10 15-23 15-38 0-15-5-27-15-38-11-10-23-15-38-15z"/>
<glyph glyph-name="interpreter-mode" unicode="&#109;" d="M437 160c-9 0-16 3-22 9-7 7-10 14-10 23l0 53c0 9 3 17 10 23 6 6 13 9 22 9 9 0 17-3 23-9 6-6 9-14 9-23l0-53c0-9-3-16-9-23-6-6-14-9-23-9z m-10-75l0 33c-18 3-34 12-46 25-12 14-18 30-18 49l21 0c0-15 5-28 15-38 11-10 23-15 38-15 15 0 28 5 38 15 11 10 16 23 16 38l21 0c0-19-6-35-18-49-13-13-28-22-46-25l0-33z m-235 171c-23 0-44 8-60 25-17 17-25 37-25 60 0 24 8 44 25 61 16 16 37 25 60 25 5 0 10-1 15-1 4-1 9-2 14-4-9-11-17-24-22-37-5-14-7-28-7-44 0-15 2-29 7-43 5-14 13-26 22-37-5-2-10-3-14-4-5-1-10-1-15-1z m-171-171l0 60c0 12 3 23 9 33 6 10 15 18 25 24 14 7 29 13 44 18 16 5 34 9 52 12-14-10-25-23-33-38-7-15-11-32-11-49l0-60z m299 171c-23 0-44 8-60 25-17 17-25 37-25 60 0 24 8 44 25 61 16 16 37 25 60 25 23 0 44-9 60-25 17-17 25-37 25-61 0-23-8-43-25-60-16-17-37-25-60-25z m0 43c12 0 22 4 30 12 8 9 13 19 13 30 0 12-5 22-13 30-8 9-18 13-30 13-12 0-22-4-30-13-8-8-13-18-13-30 0-11 5-21 13-30 8-8 18-12 30-12z m-171-214l0 60c0 12 3 23 9 33 6 10 15 18 25 24 19 9 39 17 62 23 23 6 48 10 75 10 4 0 8 0 13-1 4 0 8 0 12 0-4-7-7-13-9-20-3-7-4-15-5-22l-11 0c-26 0-48-3-68-10-20-6-36-12-49-19-3-2-6-4-8-8-2-3-3-7-3-10l0-17 153 0c5-9 12-17 20-25 8-7 16-13 26-18z m171 256z m0-213z"/>
<glyph glyph-name="mic" unicode="&#110;" d="M256 213c-18 0-33 7-45 19-13 12-19 28-19 45l0 128c0 18 6 33 19 46 12 12 27 18 45 18 18 0 33-6 45-18 13-13 19-28 19-46l0-128c0-17-6-33-19-45-12-12-27-19-45-19z m0 128z m-21-277l0 66c-37 5-68 21-92 49-24 28-36 61-36 98l42 0c0-29 11-54 32-75 20-21 45-31 75-31 30 0 55 10 75 31 21 21 32 46 32 75l42 0c0-37-12-70-36-98-24-28-55-44-92-49l0-66z m21 192c6 0 11 2 15 6 4 4 6 9 6 15l0 128c0 6-2 11-6 16-4 4-9 6-15 6-6 0-11-2-15-6-4-5-6-10-6-16l0-128c0-6 2-11 6-15 4-4 9-6 15-6z"/>
<glyph glyph-name="ring-volume" unicode="&#111;" d="M73 77l-50 48c-4 4-6 9-6 15 0 5 2 10 6 15 32 33 68 59 109 76 41 17 82 25 124 25 42 0 83-8 124-25 41-17 77-43 109-76 4-5 6-10 6-15 0-6-2-11-6-15l-50-48c-3-4-8-6-13-7-5 0-10 1-14 5l-62 47c-3 2-5 4-7 7-1 3-2 6-2 10l0 60c-13 5-27 8-41 11-14 2-29 3-44 3-15 0-30-1-44-3-14-3-28-6-41-11l0-60c0-4-1-7-2-10-2-3-4-5-7-7l-62-47c-4-4-9-5-14-5-5 1-10 3-13 7z m55 108c-10-6-20-12-30-19-9-7-19-15-30-23l22-21 38 29z m256-2l0-32 38-29 22 20c-11 9-21 17-30 24-10 7-20 12-30 17z m-256 2z m256-2z m-149 180l0 106 42 0 0-106z m140-61l-29 31 75 76 30-31z m-238 0l-76 76 30 31 75-76z"/>
<glyph glyph-name="push-pin" unicode="&#112;" d="M341 256l43-43 0-42-107 0 0-128-21-22-21 22 0 128-107 0 0 42 43 43 0 149-22 0 0 43 214 0 0-43-22 0z m-152-43l134 0-24 25 0 167-86 0 0-167z m67 0z"/>
<glyph glyph-name="phone-paused" unicode="&#113;" d="M320 299l0 149 43 0 0-149z m85 0l0 149 43 0 0-149z m21-235c-46 0-91 10-135 31-43 20-82 47-115 81-34 33-61 72-81 115-21 44-31 89-31 135 0 6 2 11 6 16 5 4 10 6 16 6l87 0c5 0 9-2 13-5 4-3 6-7 7-12l14-75c1-5 1-9 0-13-1-4-3-8-6-11l-52-53c15-25 33-49 56-72 23-22 47-41 74-58l51 50c3 4 7 6 12 8 5 1 10 2 15 1l74-15c5-1 9-3 12-7 3-4 5-8 5-13l0-87c0-6-2-11-6-16-5-4-10-6-16-6z m-297 256l35 35-9 50-48 0c2-14 4-29 8-43 3-14 7-28 14-42z m190-191c14-6 28-11 43-14 14-4 29-6 43-7l0 47-50 10z m-190 191z m190-191z"/>
<glyph glyph-name="phone-missed" unicode="&#114;" d="M73 77l-50 48c-4 4-6 9-6 15 0 5 2 10 6 15 32 33 68 59 109 76 41 17 82 25 124 25 42 0 83-8 124-25 41-17 77-43 109-76 4-5 6-10 6-15 0-6-2-11-6-15l-50-48c-3-4-8-6-13-7-5 0-10 1-14 5l-62 47c-3 2-5 4-7 7-1 3-2 6-2 10l0 60c-13 5-27 8-41 11-14 2-29 3-44 3-15 0-30-1-44-3-14-3-28-6-41-11l0-60c0-4-1-7-2-10-2-3-4-5-7-7l-62-47c-4-4-9-5-14-5-5 1-10 3-13 7z m55 108c-10-6-20-12-30-19-9-7-19-15-30-23l22-21 38 29z m256-2l0-32 38-29 22 20c-11 9-21 17-30 24-10 7-20 12-30 17z m-256 2z m256-2z m-129 87l-106 105 0-55-42 0 0 128 128 0 0-43-56 0 75-75 121 121 30-31z"/>
<glyph glyph-name="phone-in-talk" unicode="&#115;" d="M405 256c0 42-14 77-43 106-29 29-64 43-106 43l0 43c27 0 52-5 75-15 23-10 43-24 61-41 17-18 31-38 41-61 10-23 15-48 15-75z m-85 0c0 18-6 33-19 45-12 13-27 19-45 19l0 43c30 0 55-11 75-32 21-20 32-45 32-75z m106-192c-45 0-89 10-132 29-44 19-83 47-119 82-35 36-63 75-82 119-19 43-29 87-29 132 0 6 2 11 6 16 5 4 10 6 16 6l87 0c5 0 9-2 13-5 4-3 6-7 7-12l14-75c1-5 0-10-1-14-1-4-3-7-5-10l-52-53c7-13 15-25 25-38 10-12 21-24 32-35 11-11 23-21 35-31 12-9 25-18 38-26l51 50c3 4 7 6 12 8 5 1 10 2 15 1l74-15c5-1 9-4 12-8 3-3 5-8 5-12l0-87c0-6-2-11-6-16-5-4-10-6-16-6z m-297 256l35 35-9 50-48 0c2-14 4-29 8-43 3-14 7-28 14-42z m190-191c14-6 28-11 43-14 14-4 29-6 43-7l0 47-50 10z m-190 191z m190-191z"/>
<glyph glyph-name="phone-forwarded" unicode="&#116;" d="M384 299l-31 30 34 34-110 0 0 42 110 0-33 33 30 31 85-86z m42-235c-45 0-89 10-132 29-44 19-83 47-119 82-35 36-63 75-82 119-19 43-29 87-29 132 0 6 2 11 6 16 5 4 10 6 16 6l87 0c5 0 9-2 13-5 4-3 6-7 7-12l14-75c1-5 0-10-1-14-1-4-3-7-5-10l-52-53c7-13 15-25 25-38 10-12 21-24 32-35 11-11 23-21 35-31 12-9 25-18 38-26l51 50c3 4 7 6 12 8 5 1 10 2 15 1l74-15c5-1 9-4 12-8 3-3 5-8 5-12l0-87c0-6-2-11-6-16-5-4-10-6-16-6z m-297 256l35 35-9 50-48 0c2-14 4-29 8-43 3-14 7-28 14-42z m190-191c14-6 28-11 43-14 14-4 29-6 43-7l0 47-50 10z m-190 191z m190-191z"/>
<glyph glyph-name="phone-forwarded-1" unicode="&#117;" d="M384 299l-31 30 34 34-110 0 0 42 110 0-33 33 30 31 85-86z m42-235c-45 0-89 10-132 29-44 19-83 47-119 82-35 36-63 75-82 119-19 43-29 87-29 132 0 6 2 11 6 16 5 4 10 6 16 6l87 0c5 0 9-2 13-5 4-3 6-7 7-12l14-75c1-5 0-10-1-14-1-4-3-7-5-10l-52-53c7-13 15-25 25-38 10-12 21-24 32-35 11-11 23-21 35-31 12-9 25-18 38-26l51 50c3 4 7 6 12 8 5 1 10 2 15 1l74-15c5-1 9-4 12-8 3-3 5-8 5-12l0-87c0-6-2-11-6-16-5-4-10-6-16-6z m-297 256l35 35-9 50-48 0c2-14 4-29 8-43 3-14 7-28 14-42z m190-191c14-6 28-11 43-14 14-4 29-6 43-7l0 47-50 10z m-190 191z m190-191z"/>
<glyph glyph-name="phone-disabled" unicode="&#118;" d="M422 28l-118 118c-32-25-66-46-103-60-37-15-75-22-115-22-8 0-14 2-17 6-3 5-5 10-5 16l0 87c0 5 2 9 5 13 3 4 7 6 12 7l74 15c4 1 8 0 14-2 6-1 11-4 13-7l51-50c6 4 13 9 20 14 8 5 14 9 20 14l-243 243 30 30 392-392z m-230 102l-35 35-50-10 0-47c14 1 29 3 43 7 14 4 28 9 42 15z m172 77l-30 30c5 6 11 13 16 21 6 7 10 15 13 21l-52 53c-2 3-4 7-5 12-1 5-2 9-1 12l14 75c1 5 3 9 7 12 4 3 8 5 13 5l87 0c6 0 11-2 16-6 4-5 6-10 6-16 0-40-7-78-22-115-15-37-36-72-62-104z m19 113c6 14 11 28 14 42 3 14 5 29 7 43l-47 0-9-50z m0 0z m-191-190z"/>
<glyph glyph-name="phone-callback" unicode="&#119;" d="M277 277l0 128 43 0 0-55 107 107 30-30-107-107 55 0 0-43z m149-213c-45 0-89 10-132 29-44 19-83 47-119 82-35 36-63 75-82 119-19 43-29 87-29 132 0 6 2 11 6 16 5 4 10 6 16 6l87 0c5 0 9-2 13-5 4-3 6-7 7-12l14-75c1-5 0-10-1-14-1-4-3-7-5-10l-52-53c7-13 15-25 25-38 10-12 21-24 32-35 11-11 23-21 35-31 12-9 25-18 38-26l51 50c3 4 7 6 12 8 5 1 10 2 15 1l74-15c5-1 9-4 12-8 3-3 5-8 5-12l0-87c0-6-2-11-6-16-5-4-10-6-16-6z m-297 256l35 35-9 50-48 0c2-14 4-29 8-43 3-14 7-28 14-42z m190-191c14-6 28-11 43-14 14-4 29-6 43-7l0 47-50 10z m-190 191z m190-191z"/>
<glyph glyph-name="perm-phone-msg" unicode="&#120;" d="M256 235l0 192c0 6 2 11 6 15 4 4 9 6 15 6l150 0c6 0 11-2 15-6 4-4 6-9 6-15l0-107c0-6-2-11-6-15-4-4-9-6-15-6l-107 0z m43 106l106 0 0 64-106 0z m0 0l0 64z m127-277c-45 0-89 10-132 29-44 19-83 47-119 82-35 36-63 75-82 119-19 43-29 87-29 132 0 6 2 11 6 16 5 4 10 6 16 6l87 0c5 0 9-2 13-5 4-3 6-7 7-12l14-75c1-5 0-10-1-14-1-4-3-7-5-10l-52-53c7-13 15-25 25-38 10-12 21-24 32-35 11-11 23-21 35-31 12-9 25-18 38-26l51 50c3 4 7 6 12 8 5 1 10 2 15 1l74-15c5-1 9-4 12-8 3-3 5-8 5-12l0-87c0-6-2-11-6-16-5-4-10-6-16-6z m-297 256l35 35-9 50-48 0c2-14 4-29 8-43 3-14 7-28 14-42z m190-191c14-6 28-11 43-14 14-4 29-6 43-7l0 47-50 10z m-190 191z m190-191z"/>
<glyph glyph-name="outgoing-mail" unicode="&#121;" d="M384 85l-30 30 34 34-89 0 0 43 89 0-34 34 30 30 85-85z m-299 64c-11 0-21 5-30 13-8 8-12 18-12 30l0 213c0 12 4 22 12 30 9 9 19 13 30 13l278 0c11 0 21-4 30-13 8-8 12-18 12-30l0-108c-3 0-7 1-10 1-4 0-7 1-11 1-4 0-7 0-11-1-3 0-7 0-10-1l0 78-141-98-137 98 0-183 173 0c-1-4-2-7-2-11 0-3 0-7 0-10 0-4 0-7 1-11 0-4 0-7 1-11z m31 256l106-75 109 75z m-31-213l0 213z"/>
<glyph glyph-name="mobile-screen-share" unicode="&#65;" d="M192 192l0 32c0 18 6 33 19 45 12 13 27 19 45 19l21 0 0 43 64-64-64-64 0 42-21 0c-6 0-11-2-15-6-4-4-6-9-6-15l0-32z m-43-171c-11 0-21 5-30 13-8 8-12 18-12 30l0 384c0 12 4 22 12 30 9 8 19 13 30 13l214 0c11 0 21-5 30-13 8-8 12-18 12-30l0-384c0-12-4-22-12-30-9-8-19-13-30-13z m0 64l0-21 214 0 0 21z m0 43l214 0 0 256-214 0z m0 299l214 0 0 21-214 0z m0 0l0 21z m0-342l0-21z"/>
<glyph glyph-name="sentiment-dissatisfied" unicode="&#66;" d="M331 277c9 0 16 3 22 10 7 6 10 13 10 22 0 9-3 17-10 23-6 6-13 9-22 9-9 0-17-3-23-9-6-6-9-14-9-23 0-9 3-16 9-22 6-7 14-10 23-10z m-150 0c9 0 17 3 23 10 6 6 9 13 9 22 0 9-3 17-9 23-6 6-14 9-23 9-9 0-16-3-22-9-7-6-10-14-10-23 0-9 3-16 10-22 6-7 13-10 22-10z m75-53c-24 0-46-7-66-21-20-13-34-31-43-54l35 0c8 13 19 24 32 32 13 7 27 11 42 11 15 0 29-4 42-11 13-8 24-19 32-32l35 0c-9 23-23 41-43 54-20 14-42 21-66 21z m0-181c-30 0-57 5-83 16-26 12-49 27-68 46-19 19-34 42-46 68-11 26-16 53-16 83 0 30 5 57 16 83 12 26 27 49 46 68 19 19 42 34 68 46 26 11 53 16 83 16 30 0 57-5 83-16 26-12 49-27 68-46 19-19 34-42 46-68 11-26 16-53 16-83 0-30-5-57-16-83-12-26-27-49-46-68-19-19-42-34-68-46-26-11-53-16-83-16z m0 213z m0-171c48 0 88 17 121 50 33 33 50 73 50 121 0 48-17 88-50 121-33 33-73 50-121 50-48 0-88-17-121-50-33-33-50-73-50-121 0-48 17-88 50-121 33-33 73-50 121-50z"/>
<glyph glyph-name="sentiment-neutral" unicode="&#67;" d="M331 277c9 0 16 3 22 10 7 6 10 13 10 22 0 9-3 17-10 23-6 6-13 9-22 9-9 0-17-3-23-9-6-6-9-14-9-23 0-9 3-16 9-22 6-7 14-10 23-10z m-150 0c9 0 17 3 23 10 6 6 9 13 9 22 0 9-3 17-9 23-6 6-14 9-23 9-9 0-16-3-22-9-7-6-10-14-10-23 0-9 3-16 10-22 6-7 13-10 22-10z m11-96l128 0 0 32-128 0z m64-138c-30 0-57 5-83 16-26 12-49 27-68 46-19 19-34 42-46 68-11 26-16 53-16 83 0 30 5 57 16 83 12 26 27 49 46 68 19 19 42 34 68 46 26 11 53 16 83 16 30 0 57-5 83-16 26-12 49-27 68-46 19-19 34-42 46-68 11-26 16-53 16-83 0-30-5-57-16-83-12-26-27-49-46-68-19-19-42-34-68-46-26-11-53-16-83-16z m0 213z m0-171c48 0 88 17 121 50 33 33 50 73 50 121 0 48-17 88-50 121-33 33-73 50-121 50-48 0-88-17-121-50-33-33-50-73-50-121 0-48 17-88 50-121 33-33 73-50 121-50z"/>
<glyph glyph-name="sentiment-satisfied" unicode="&#68;" d="M331 277c9 0 16 3 22 10 7 6 10 13 10 22 0 9-3 17-10 23-6 6-13 9-22 9-9 0-17-3-23-9-6-6-9-14-9-23 0-9 3-16 9-22 6-7 14-10 23-10z m-150 0c9 0 17 3 23 10 6 6 9 13 9 22 0 9-3 17-9 23-6 6-14 9-23 9-9 0-16-3-22-9-7-6-10-14-10-23 0-9 3-16 10-22 6-7 13-10 22-10z m75-138c24 0 46 7 66 20 20 14 34 32 43 54l-35 0c-8-13-19-23-32-31-13-8-27-11-42-11-15 0-29 3-42 11-13 8-24 18-32 31l-35 0c9-22 23-40 43-54 20-13 42-20 66-20z m0-96c-30 0-57 5-83 16-26 12-49 27-68 46-19 19-34 42-46 68-11 26-16 53-16 83 0 30 5 57 16 83 12 26 27 49 46 68 19 19 42 34 68 46 26 11 53 16 83 16 30 0 57-5 83-16 26-12 49-27 68-46 19-19 34-42 46-68 11-26 16-53 16-83 0-30-5-57-16-83-12-26-27-49-46-68-19-19-42-34-68-46-26-11-53-16-83-16z m0 213z m0-171c48 0 88 17 121 50 33 33 50 73 50 121 0 48-17 88-50 121-33 33-73 50-121 50-48 0-88-17-121-50-33-33-50-73-50-121 0-48 17-88 50-121 33-33 73-50 121-50z"/>
<glyph glyph-name="sentiment-very-dissatisfied" unicode="&#69;" d="M256 224c-24 0-46-7-66-21-20-13-34-31-43-54l218 0c-9 23-23 41-43 54-20 14-42 21-66 21z m-90 32l24 22 22-22 23 22-23 23 23 23-23 23-22-23-24 23-22-23 22-23-22-23z m134 0l22 22 24-22 22 22-22 23 22 23-22 23-24-23-22 23-23-23 23-23-23-23z m-44-213c-30 0-57 5-83 16-26 12-49 27-68 46-19 19-34 42-46 68-11 26-16 53-16 83 0 30 5 57 16 83 12 26 27 49 46 68 19 19 42 34 68 46 26 11 53 16 83 16 30 0 57-5 83-16 26-12 49-27 68-46 19-19 34-42 46-68 11-26 16-53 16-83 0-30-5-57-16-83-12-26-27-49-46-68-19-19-42-34-68-46-26-11-53-16-83-16z m0 213z m0-171c48 0 88 17 121 50 33 33 50 73 50 121 0 48-17 88-50 121-33 33-73 50-121 50-48 0-88-17-121-50-33-33-50-73-50-121 0-48 17-88 50-121 33-33 73-50 121-50z"/>
<glyph glyph-name="sentiment-very-satisfied" unicode="&#70;" d="M256 139c24 0 46 7 66 20 20 14 34 32 43 54l-218 0c9-22 23-40 43-54 20-13 42-20 66-20z m-90 138l24 23 22-23 23 23-45 46-46-46z m134 0l22 23 24-23 22 23-46 46-45-46z m-44-234c-30 0-57 5-83 16-26 12-49 27-68 46-19 19-34 42-46 68-11 26-16 53-16 83 0 30 5 57 16 83 12 26 27 49 46 68 19 19 42 34 68 46 26 11 53 16 83 16 30 0 57-5 83-16 26-12 49-27 68-46 19-19 34-42 46-68 11-26 16-53 16-83 0-30-5-57-16-83-12-26-27-49-46-68-19-19-42-34-68-46-26-11-53-16-83-16z m0 213z m0-171c48 0 88 17 121 50 33 33 50 73 50 121 0 48-17 88-50 121-33 33-73 50-121 50-48 0-88-17-121-50-33-33-50-73-50-121 0-48 17-88 50-121 33-33 73-50 121-50z"/>
<glyph glyph-name="settings" unicode="&#71;" d="M197 43l-8 68c-5 2-9 4-13 6-4 3-8 5-12 8l-64-26-58 101 55 42c-1 2-1 4-1 7l0 14c0 3 0 5 1 7l-55 42 58 101 64-26c4 3 8 5 12 8 4 2 9 4 13 6l8 68 118 0 8-68c5-2 9-4 13-6 4-3 8-5 12-8l64 26 58-101-55-42c1-2 1-4 1-7l0-14c0-3 0-5-1-7l55-42-59-101-63 26c-4-3-8-5-12-8-4-2-9-4-13-6l-8-68z m38 42l42 0 7 57c11 3 22 7 31 12 9 6 18 13 26 20l53-21 20 36-45 34c1 5 3 11 3 16 1 6 1 11 1 17 0 6 0 11-1 17 0 5-2 11-3 16l45 34-20 36-53-22c-8 8-17 15-26 21-9 5-20 9-31 12l-7 57-42 0-7-57c-11-3-22-7-31-12-9-6-18-13-26-20l-53 21-20-36 45-34c-1-5-3-11-3-16-1-5-1-11-1-17 0-6 0-11 1-17 0-5 2-10 3-16l-45-34 20-36 53 22c8-8 17-15 26-21 9-5 20-9 31-12z m22 96c21 0 38 8 53 22 14 15 22 32 22 53 0 21-8 38-22 53-15 14-32 22-53 22-21 0-39-8-53-22-14-15-22-32-22-53 0-21 8-38 22-53 14-14 32-22 53-22z m-1 75z"/>
<glyph glyph-name="task-alt" unicode="&#72;" d="M256 43c-30 0-57 5-83 16-26 12-49 27-68 46-19 19-34 42-46 68-11 26-16 53-16 83 0 30 5 57 16 83 12 26 27 49 46 68 19 19 42 34 68 46 26 11 53 16 83 16 23 0 45-3 66-10 20-7 39-16 57-28l-31-32c-14 9-28 16-43 20-16 5-32 8-49 8-47 0-88-17-121-50-33-33-50-74-50-121 0-47 17-88 50-121 33-33 74-50 121-50 47 0 88 17 121 50 33 33 50 74 50 121 0 6-1 13-1 19-1 7-2 13-4 19l35 35c4-12 7-24 9-36 2-12 3-24 3-37 0-30-5-57-16-83-12-26-27-49-46-68-19-19-42-34-68-46-26-11-53-16-83-16z m-30 115l-91 91 30 29 61-60 213 213 30-29z"/>
<glyph glyph-name="toggle-off" unicode="&#73;" d="M149 128c-35 0-65 12-90 37-25 25-38 55-38 91 0 36 13 66 38 91 25 25 55 37 90 37l214 0c35 0 65-12 90-37 25-25 38-55 38-91 0-36-13-66-38-91-25-25-55-37-90-37z m0 43l214 0c23 0 43 8 60 25 17 16 25 37 25 60 0 23-8 44-25 60-17 17-37 25-60 25l-214 0c-23 0-43-8-60-25-17-16-25-37-25-60 0-23 8-44 25-60 17-17 37-25 60-25z m0 21c18 0 33 6 46 19 12 12 18 27 18 45 0 18-6 33-18 45-13 13-28 19-46 19-17 0-33-6-45-19-12-12-19-27-19-45 0-18 7-33 19-45 12-13 28-19 45-19z m107 64z"/>
<glyph glyph-name="toggle-on" unicode="&#74;" d="M149 128c-35 0-65 12-90 37-25 25-38 55-38 91 0 36 13 66 38 91 25 25 55 37 90 37l214 0c35 0 65-12 90-37 25-25 38-55 38-91 0-36-13-66-38-91-25-25-55-37-90-37z m0 43l214 0c23 0 43 8 60 25 17 16 25 37 25 60 0 23-8 44-25 60-17 17-37 25-60 25l-214 0c-23 0-43-8-60-25-17-16-25-37-25-60 0-23 8-44 25-60 17-17 37-25 60-25z m214 21c17 0 33 6 45 19 12 12 19 27 19 45 0 18-7 33-19 45-12 13-28 19-45 19-18 0-33-6-46-19-12-12-18-27-18-45 0-18 6-33 18-45 13-13 28-19 46-19z m-107 64z"/>
<glyph glyph-name="call-made" unicode="&#99;" d="M115 85l-30 30 248 248-141 0 0 42 213 0 0-213-42 0 0 141z"/>
<glyph glyph-name="call" unicode="&#100;" d="M426 64c-45 0-89 10-132 29-44 19-83 47-119 82-35 36-63 75-82 119-19 43-29 87-29 132 0 6 2 11 6 16 5 4 10 6 16 6l87 0c5 0 9-2 13-5 4-3 6-7 7-12l14-75c1-5 0-10-1-14-1-4-3-7-5-10l-52-53c7-13 15-25 25-38 10-12 21-24 32-35 11-11 23-21 35-31 12-9 25-18 38-26l51 50c3 4 7 6 12 8 5 1 10 2 15 1l74-15c5-1 9-4 12-8 3-3 5-8 5-12l0-87c0-6-2-11-6-16-5-4-10-6-16-6z m-297 256l35 35-9 50-48 0c2-14 4-29 8-43 3-14 7-28 14-42z m190-191c14-6 28-11 43-14 14-4 29-6 43-7l0 47-50 10z m-190 191z m190-191z"/>
<glyph glyph-name="support-agent" unicode="&#122;" d="M235 64l0 43 170 0 0 151c0 42-14 77-43 106-29 29-64 43-106 43-42 0-77-14-106-43-29-29-43-64-43-106l0-130-22 0c-11 0-21 4-30 13-8 8-12 18-12 30l0 42c0 8 2 15 5 21 4 7 9 12 16 16l2 28c2 25 9 47 21 68 11 20 25 38 42 53 17 16 36 28 58 36 22 9 45 13 69 13 24 0 47-4 69-13 21-8 41-20 58-35 17-15 31-33 42-54 11-20 18-43 21-67l2-28c7-3 12-8 16-14 3-7 5-13 5-20l0-50c0-7-2-13-5-20-4-6-9-11-16-14l0-26c0-12-4-22-13-30-8-9-18-13-30-13z m-43 149c-6 0-11 2-15 6-4 5-6 10-6 16 0 6 2 11 6 15 4 4 9 6 15 6 6 0 11-2 15-6 4-4 6-9 6-15 0-6-2-11-6-16-4-4-9-6-15-6z m128 0c-6 0-11 2-15 6-4 5-6 10-6 16 0 6 2 11 6 15 4 4 9 6 15 6 6 0 11-2 15-6 4-4 6-9 6-15 0-6-2-11-6-16-4-4-9-6-15-6z m-191 33c-3 38 8 70 34 97 25 27 56 41 94 41 32 0 60-10 84-30 24-20 38-46 43-77-32 0-62 9-89 26-28 17-48 40-63 69-6-28-18-54-36-76-18-22-41-39-67-50z"/>
<glyph glyph-name="paused" unicode="&#75;" d="M192 192l43 0 0 128-43 0z m85 0l43 0 0 128-43 0z m-21-149c-30 0-57 5-83 16-26 12-49 27-68 46-19 19-34 42-46 68-11 26-16 53-16 83 0 15 1 30 4 45 4 15 8 29 14 43l33-33c-2-9-5-18-6-28-2-9-3-18-3-27 0-48 17-88 50-121 33-33 73-50 121-50 48 0 88 17 121 50 33 33 50 73 50 121 0 48-17 88-50 121-33 33-73 50-121 50-10 0-19-1-28-3-9-1-18-4-27-6l-32 32c14 7 28 11 42 15 14 3 29 4 45 4 30 0 57-5 83-16 26-12 49-27 68-46 19-19 34-42 46-68 11-26 16-53 16-83 0-30-5-57-16-83-12-26-27-49-46-68-19-19-42-34-68-46-26-11-53-16-83-16z m-139 320c-9 0-16 3-22 9-7 6-10 14-10 23 0 9 3 16 10 22 6 7 13 10 22 10 9 0 17-3 23-10 6-6 9-13 9-22 0-9-3-17-9-23-6-6-14-9-23-9z m139-107z"/>
</font>
</defs>
</svg>
